Καλώς ήρθατε στο Greek-Best !
Dear Greek-Best Members, to keep up the site we need your help. Please make any donation you to our Moneysafe Card.

Αγαπητοί φίλοι της σελίδας μας, Για να συνεχίσει να λειτουργεί η σελίδα χρειαζόμαστε την δική σας στήριξή μέσω των V.I.P πακέτων μας. Με τις εισφορές που δίνετε στα V.I.P πακέτα μας συμπληρώνετε το χρηματικό πόσο που χρειάζεστε για να μπορούμε να πληρώσουμε τα λειτουργικά έξοδα.
Για αυτό σας παρακαλούμε βοηθήστε όσο μπορείτε. Οι πληρώμες μπορούν να γίνουν με:
1.eMoneySafe Μας στέλνετε τον αριθμό της emoneysafe στο email donate@greek-best.com μαζί με το username και εμεις προχωράμε στην εγγραφή.eMoneySafe Prepaid Shops Ελλάδας
VIP MEMBERS: 3 ΜΗΝΕΣ = 10 ΕΥΡΩ / 6 ΜΗΝΕΣ = 15 ΕΥΡΩ / 12 ΜΗΝΕΣ = 30 ΕΥΡΩ

ΟΠΟΙΑΔΗΠΟΤΕ ΕΙΣΦΟΡΑ ΕΙΝΑΙ ΣΗΜΑΝΤΙΚΗ ΜΕΣΟ ΕMONEYSAFE

ΑΠΡΙΛΙΟΣ
0% Complete
Do not hesitate to contact us for problems donating / Μην διστάσετε να επικοινωνήσετε μαζί μας για οποιοδήποτε πρόβλημα έχετε με την εισφορά σας donate@greek-best.com

Εμφάνιση αποτελεσμάτων : 1 έως 1 από 1
  1. #1
    Gold Member
    Εγγραφή
    Sep 2012
    Ηλικία
    26
    Μηνύματα
    85
    Total 'Thanks' Received by This User :
    1 For This Post
    2,565 Σύνολο

    Mxd.gif THE HOLLOW POINT (2016) BluRay 720p DTS x264-MTeam | ΞΕΧΩΡΙΣΤΟΙ ΥΠΟΤΙΤΛΟΙ



    ΣΚΗΝΟΘΕΣΙΑ : Gonzalo LΓ³pez-Gallego
    ΣΕΝΑΡΙΟ : Nils Lyew
    ΗΘΟΠΟΙΟΙ : Patrick Wilson, Lynn Collins, Ian McShane
    ΕΙΔΟΣ : Crime, Thriller
    ΠΡΕΜΙΕΡΑ : 16 December 2016 (Netherlands)
    ΜΕΤΑΦΡΑΣΗ : ShitHigh&Watch
    Imdb: http://www.imdb.com/title/tt2918606/

    ΥΠΟΘΕΣΗ

    Ο Λέλαντ, ένας συνταξιοδοτημένος σερίφης, με βίαιες εξάρσεις, και ο νεαρός αντικαταστάτης του, ο Γουάλας, ένας τύπος με σκοτεινό παρελθόν, πρέπει να ενώσουν τις δυνάμεις τους για να προστατεύσουν τους πολίτες της πόλης του, και να ερευνήσουν την πηγή του εμπορίου όπλου από το Μεξικό, που αφήνει πολλούς νεκρούς πίσω και μια χαμένη τσάντα γεμάτη χρήματα. Τότε, καταφθάνει στην πόλη ένας μυστηριώδης και αδίστακτος εκτελεστής των καρτέλ, ο Άτικους, αναζητώντας τη χαμένη λεία, εξολοθρεύοντας συστηματικά όποιον μπαίνει στον δρόμο του. Όταν ανακαλύπτουν ότι η κοπέλα του σερίφη είναι στη λίστα του εκτελεστή, οι δύο άντρες του νόμου πρέπει να ξεχάσουν τις νόμιμες οδούς ώστε να έχουν μια ελπίδα επιτυχίας.



    Κώδικας:
    Format : Matroska
    Format version : Version 4 / Version 2
    File size : 3.26 GiB
    Duration : 1h 37mn
    Overall bit rate : 4 808 Kbps
    Encoded date : UTC 2017-01-11 03:33:41
    Writing application : mkvmerge v9.7.1 ('Pandemonium') 64bit
    Writing library : libebml v1.3.4 + libmatroska v1.4.5
    DURATION : 01:37:10.304000000
    NUMBER_OF_FRAMES : 546591
    NUMBER_OF_BYTES : 1099741092
    _STATISTICS_WRITING_APP : mkvmerge v9.7.1 ('Pandemonium') 64bit
    _STATISTICS_WRITING_DATE_UTC : 2017-01-11 03:33:41
    _STATISTICS_TAGS : BPS DURATION NUMBER_OF_FRAMES NUMBER_OF_BYTES
    
    Video
    ID : 1
    Format : AVC
    Format/Info : Advanced Video Codec
    Format profile : High@L4.1
    Format settings, CABAC : Yes
    Format settings, ReFrames : 9 frames
    Codec ID : V_MPEG4/ISO/AVC
    Duration : 1h 37mn
    Bit rate : 3 204 Kbps
    Width : 1 280 pixels
    Height : 534 pixels
    Display aspect ratio : 2.40:1
    Frame rate mode : Constant
    Frame rate : 23.976 fps
    Color space : YUV
    Chroma subsampling : 4:2:0
    Bit depth : 8 bits
    Scan type : Progressive
    Bits/(Pixel*Frame) : 0.195
    Stream size : 2.17 GiB (67%)
    Writing library : x264 core 142 r2431+42 c69a006 tMod [8-bit@4:2:0 X86_64]
    Encoding settings : cabac=1 / ref=9 / deblock=1:-3:-3 / analyse=0x3:013 / me=umh / subme=10 / psy=1 / fade_compensate=0.00 / psy_rd=1.00:0.05 / mixed_ref=1 / me_range=32 / chroma_me=1 / trellis=2 / 8x8dct=1 / cqm=0 / deadzone=21,11 / fast_pskip=0 / chroma_qp_offset=-2 / threads=12 / lookahead_threads=2 / sliced_threads=0 / nr=0 / decimate=1 / interlaced=0 / bluray_compat=0 / constrained_intra=0 / fgo=0 / bframes=8 / b_pyramid=2 / b_adapt=2 / b_bias=0 / direct=3 / weightb=1 / open_gop=0 / weightp=2 / keyint=250 / keyint_min=23 / scenecut=40 / intra_refresh=0 / rc_lookahead=40 / rc=crf / mbtree=0 / crf=18.0000 / qcomp=0.60 / qpmin=0:0:0 / qpmax=69:69:69 / qpstep=4 / vbv_maxrate=30000 / vbv_bufsize=30000 / crf_max=0.0 / nal_hrd=none / filler=0 / ip_ratio=1.40 / pb_ratio=1.30 / aq=3:1.00 / aq-sensitivity=10.00 / aq-factor=1.00:1.00:1.00 / aq2=0 / aq3=0
    Language : English
    Default : Yes
    Forced : No
    Matrix coefficients : BT.709
    DURATION : 01:37:10.283000000
    NUMBER_OF_FRAMES : 139787
    NUMBER_OF_BYTES : 2402827445
    _STATISTICS_WRITING_APP : mkvmerge v9.7.1 ('Pandemonium') 64bit
    _STATISTICS_WRITING_DATE_UTC : 2017-01-11 03:33:41
    _STATISTICS_TAGS : BPS DURATION NUMBER_OF_FRAMES NUMBER_OF_BYTES
    
    Audio
    ID : 2
    Format : DTS
    Format/Info : Digital Theater Systems
    Mode : 16
    Format settings, Endianness : Big
    Codec ID : A_DTS
    Duration : 1h 37mn
    Bit rate mode : Constant
    Bit rate : 1 509 Kbps
    Channel(s) : 6 channels
    Channel positions : Front: L C R, Side: L R, LFE
    Sampling rate : 48.0 KHz
    Bit depth : 24 bits
    Compression mode : Lossy
    Stream size : 1.02 GiB (31%)
    Language : English
    Default : Yes
    Forced : No






    You must either reply or click 'Thank You' to see the hidden information contained here.
    Θα μπορέσετε να δείτε το κρυμμένο περιεχόμενο μόλις απαντήσετε σε αυτό το θέμα!


    You must either reply or click 'Thank You' to see the hidden information contained here.
    Θα μπορέσετε να δείτε το κρυμμένο περιεχόμενο μόλις απαντήσετε σε αυτό το θέμα!

    Τελευταία επεξεργασία από το χρήστη Golden-Virginia ; 01-12-2017 στις 12:43 PM
    Απάντηση με παράθεση Απάντηση με παράθεση

  2. Who Said Thanks:


 

 

Πληροφορίες Θέματος

Users Browsing this Thread

Υπάρχουν 1 χρήστης/ες που πλοηγούνται σ' αυτό το θέμα. (0 μέλος/η και 1 επισκέπτης/ες)

Δικαιώματα - Επιλογές

  • Δεν μπορείτε να δημοσιεύετε νέα θέματα
  • Δεν μπορείτε να απαντάτε σε θέματα
  • Δεν μπορείτε να δημοσιεύετε συνημμένα αρχεία
  • Δεν μπορείτε να επεξεργαστείτε τα μηνύματα σας
  •  
Back to top