Καλώς ήρθατε στο Greek-Best !
Dear Greek-Best Members, to keep up the site we need your help. Please make any donation you to our Moneysafe Card.

Αγαπητοί φίλοι της σελίδας μας, Για να συνεχίσει να λειτουργεί η σελίδα χρειαζόμαστε την δική σας στήριξή μέσω των V.I.P πακέτων μας. Με τις εισφορές που δίνετε στα V.I.P πακέτα μας συμπληρώνετε το χρηματικό πόσο που χρειάζεστε για να μπορούμε να πληρώσουμε τα λειτουργικά έξοδα.
Για αυτό σας παρακαλούμε βοηθήστε όσο μπορείτε. Οι πληρώμες μπορούν να γίνουν με:
1.MoneySafe Μας στέλνετε τον αριθμό της moneysafe στο email donate@greek-best.com μαζί με το username και εμεις προχωράμε στην εγγραφή.MoneySafe Σημεία Πώλησης Ελλάδας
VIP MEMBERS: 3 ΜΗΝΕΣ = 10 ΕΥΡΩ / 6 ΜΗΝΕΣ = 15 ΕΥΡΩ / 12 ΜΗΝΕΣ = 30 ΕΥΡΩ

*** ΑΠΟΜΕΝΟΥΝ ΜΟΝΟ 6 ΜΕΡΕΣ - ΑΝ ΔΕΝ ΜΑΖΕΥΤΟΥΝ ΘΑ ΚΛΕΙΣΟΥΜΕ !!!***
ΟΠΟΙΑΔΗΠΟΤΕ ΕΙΣΦΟΡΑ ΕΙΝΑΙ ΣΗΜΑΝΤΙΚΗ ΜΕΣΟ MONEYSAFE


ΦΕΒΡΟΥΑΡΙΟΣ
10% Complete
Do not hesitate to contact us for problems donating / Μην διστάσετε να επικοινωνήσετε μαζί μας για οποιοδήποτε πρόβλημα έχετε με την εισφορά σας donate@greek-best.com

Εμφάνιση αποτελεσμάτων : 1 έως 4 από 4
  1. #1
    Expert Member
    Εγγραφή
    Feb 2013
    Ηλικία
    41
    Μηνύματα
    5,666
    Total 'Thanks' Received by This User :
    1 For This Post
    80,396 Σύνολο

    Mxd.gif MASTER OF THE WORLD (1961) BRRip - ΞΕΧΩΡΙΣΤΟΙ ΥΠΟΤΙΤΛΟΙ



    MASTER OF THE WORLD (1961) BRRip - ΞΕΧΩΡΙΣΤΟΙ ΥΠΟΤΙΤΛΟΙ

    Σκηνοθεσία: William Witney
    Σενάριο: Richard Matheson , Jules Verne
    Ηθοποιοί: Vincent Price, Charles Bronson, Henry Hull, Mary Webster, David Frankham, Richard Harrison, Vito Scotti, Wally Campo
    Είδος ταινίας: Sci-Fi, Adventure
    Χώρα παραγωγής: USA

    Υποτιτλισμός: Stefanos P

    1868. Μια απόκοσμη φωνή από βουνό αναγγέλλει το τέλος του κόσμου. Για να βρεθεί η πηγή αυτής της φωνής, στέλνεται ένα μηχανικό αερόστατο με πλήρωμα τον κατασκευαστή του, Προυντέντ, την κόρη του, Ντόροθι, τον μνηστήρα της, Φίλιπ, και τον πιλότο Στροκ. Πολύ σύντομα, οι τέσσερις τους πέφτουν αιχμάλωτοι από τον ευφυή, αλλά αψυχολόγητο Ρομπέρ, καπετάνιος του Άλμπατρος, ενός γιγάντιου ιπτάμενου μηχανισμού, υψηλής τεχνολογίας. Αυτός τους εξηγεί ότι είναι άνθρωπος της ειρήνης και πως σκοπό του έχει να εξαλείψει κάθε πολεμική μηχανή από τον πλανήτη, χωρίς όμως να υπολογίζει τις ανθρώπινες ζωές που θα χαθούν κατά τη διαδικασία.







    Κώδικας:
    http://www.imdb.com/title/tt0055152/
    ΤΕΧΝΙΚΑ ΧΑΡΑΚΤΗΡΙΣΤΙΚΑ

    [spoiler]
    General

    Complete name : Master of the World (1961) BRRip XviD MP3-RARBG.avi

    Format : AVI

    Format/Info : Audio Video Interleave

    Format profile : OpenDML

    File size : 1.25 GiB

    Duration : 1 h 42 min

    Overall bit rate : 1 745 kb/s

    Movie name : RARBG.COM - Master.of.the.World.1961.BRRip.XviD.MP3-RARBG

    Writing application : Lavf56.40.101

    Comment : RARBG.COM - Master.of.the.World.1961.BRRip.XviD.MP3-RARBG

    Video

    ID : 0

    Format : MPEG-4 Visual

    Format profile : Simple@L5

    Format settings, BVOP : No

    Format settings, QPel : No

    Format settings, GMC : No warppoints

    Format settings, Matrix : Default (H.263)

    Codec ID : XVID

    Codec ID/Hint : XviD

    Duration : 1 h 42 min

    Bit rate : 1 538 kb/s

    Width : 720 pixels

    Height : 388 pixels

    Display aspect ratio : 1.85:1

    Original display aspect ratio : 1.85:1

    Frame rate : 23.976 FPS

    Color space : YUV

    Chroma subsampling : 4:2:0

    Bit depth : 8 bits

    Scan type : Progressive

    Compression mode : Lossy

    Bits/(Pixel*Frame) : 0.230

    Stream size : 1.10 GiB (88%)

    Title : RARBG.COM - Master.of.the.World.1961.BRRip.XviD.MP3-RARBG

    Writing library : Lavc56.60.100

    Audio

    ID : 1

    Format : MPEG Audio

    Format version : Version 1

    Format profile : Layer 3

    Mode : Joint stereo

    Mode extension : MS Stereo

    Codec ID : 55

    Codec ID/Hint : MP3

    Duration : 1 h 42 min

    Bit rate mode : Constant

    Bit rate : 192 kb/s

    Channel(s) : 2 channels

    Sampling rate : 48.0 kHz

    Compression mode : Lossy

    Stream size : 141 MiB (11%)

    Alignment : Aligned on interleaves

    Interleave, duration : 24 ms (0.58 video frame)

    Interleave, preload duration : 24 ms
    [/spoiler]




    You must either reply or click 'Thank You' to see the hidden information contained here.
    Θα μπορέσετε να δείτε το κρυμμένο περιεχόμενο μόλις απαντήσετε σε αυτό το θέμα!




    You must either reply or click 'Thank You' to see the hidden information contained here.
    Θα μπορέσετε να δείτε το κρυμμένο περιεχόμενο μόλις απαντήσετε σε αυτό το θέμα!
    Απόκτησε από εδώ λογ/σμό στον easybytez και κατέβαζε σαν premium από τους δημοφιλέστερους hosts.

    Απόκτησε από εδώ λογ/σμό στο νέο ανερχόμενο host, uploaded.to και κατέβαζε απεριόριστα και με maximum ταχύτητα, ελληνικές και τούρκικες σειρές, φιλμογραφίες, e-books και άλλα πολλά.
    Απάντηση με παράθεση Απάντηση με παράθεση

  2. Who Said Thanks:


  3. #2
    Expert Member
    Εγγραφή
    Feb 2014
    Ηλικία
    37
    Μηνύματα
    1,180
    Total 'Thanks' Received by This User :
    0 For This Post
    0 Σύνολο
    Προειδοποιήση | Warning
    Πρέπει να είστε εγγεγραμμένο μέλος για να δείτε την απάντηση η να συνδεθείτε . Για να εγγραφείτε Παρακαλώ κάντε κλικ εδώ | You Must be a registered member and logged in to view this response. To Register Please Click Here
    Απάντηση με παράθεση Απάντηση με παράθεση

  4. #3
    Advanced Member
    Εγγραφή
    Sep 2010
    Ηλικία
    54
    Μηνύματα
    507
    Total 'Thanks' Received by This User :
    0 For This Post
    0 Σύνολο
    Προειδοποιήση | Warning
    Πρέπει να είστε εγγεγραμμένο μέλος για να δείτε την απάντηση η να συνδεθείτε . Για να εγγραφείτε Παρακαλώ κάντε κλικ εδώ | You Must be a registered member and logged in to view this response. To Register Please Click Here
    Απάντηση με παράθεση Απάντηση με παράθεση

  5. #4
    Expert Member
    Εγγραφή
    Mar 2013
    Ηλικία
    42
    Μηνύματα
    2,507
    Total 'Thanks' Received by This User :
    0 For This Post
    0 Σύνολο
    Προειδοποιήση | Warning
    Πρέπει να είστε εγγεγραμμένο μέλος για να δείτε την απάντηση η να συνδεθείτε . Για να εγγραφείτε Παρακαλώ κάντε κλικ εδώ | You Must be a registered member and logged in to view this response. To Register Please Click Here
    Απάντηση με παράθεση Απάντηση με παράθεση

 

 

Πληροφορίες Θέματος

Users Browsing this Thread

Υπάρχουν 1 χρήστης/ες που πλοηγούνται σ' αυτό το θέμα. (0 μέλος/η και 1 επισκέπτης/ες)

Δικαιώματα - Επιλογές

  • Δεν μπορείτε να δημοσιεύετε νέα θέματα
  • Δεν μπορείτε να απαντάτε σε θέματα
  • Δεν μπορείτε να δημοσιεύετε συνημμένα αρχεία
  • Δεν μπορείτε να επεξεργαστείτε τα μηνύματα σας
  •