Καλώς ήρθατε στο Greek-Best !
Αγαπητοί φίλοι της Greek-Best.com, δυστυχώς δεν καταφέρνουμε να μαζέψουμε εισφορές της τάξης των 100€ / ανά μήνα για τα λειτουργικά έξοδα της σελίδας μας και για αυτό αποφασίσαμε να την τερματίσουμε . Απολογούμαστε, αλλά οι καιροί είναι δύσκολοι και δεν μπορούμε να πληρώνουμε από τα δικά μας λεφτά.

Όποιoς ενδιαφέρεται να συνεχίσει τη λειτουργία της σελίδας είναι διαθέσιμη προς πώληση. Στείλτε μας για συζήτηση στο donate@greek-best.com.

Απομένουν μερικές μέρες μέχρι να λήξει ο μήνας άρα όποιος θέλει να στείλει την εισφορά του μόνο μέσω eMoneySafe Card στο donate@greek-best.com . Απαιτούμενο ποσό είναι 100€ μέχρι τέλος Απριλίου. Όποιοι μπορούν να βοηθήσουν θα αναγράφονται σε αυτό το ποστ μαζί με την εισφορά και το όνομα τους.

Οποιαδήποτε εισφορά είναι δεκτή και μαζί με τα δικά μας λεφτά θα καλύψουμε την απαιτούμενη εισφορά των 100€. Ευχαριστούμε.

Εισφορές Μάιος: kako_stroumfaki €10 | asere1 €10 | trimerios €20 | talos43 €20 | fm8210849 €10

Do not hesitate to contact us for problems donating / Μην διστάσετε να επικοινωνήσετε μαζί μας για οποιοδήποτε πρόβλημα έχετε με την εισφορά σας donate@greek-best.com


Εμφάνιση αποτελεσμάτων : 1 έως 3 από 3
  1. #1
    Expert Member
    Εγγραφή
    Sep 2012
    Ηλικία
    42
    Μηνύματα
    2,442
    Total 'Thanks' Received by This User :
    10 For This Post
    62,354 Σύνολο

    Mxd.gif SMURFS 2 *ΣΤΡΟΥΜΦΑΚΙΑ 2* 2013

    SMURFS 2 *ΣΤΡΟΥΜΦΑΚΙΑ 2* 2013 R5 DVDRip XVID AC3 BHRG | ΞΕΧΩΡΙΣΤΟΙ ΥΠΟΤΙΤΛΟΙ





    Υπότιτλοι:Ελληνικοί, Ξεχωριστοί
    Μετάφραση υποτίτλων από:ADESPOTI
    Μέγεθος:1.62 GB
    Είδος Ταινίας:ΚΙΝΟΥΜΕΝΑ ΣΧΕΔΙΑ
    Διάρκεια:105 λεπτά
    Σκηνοθέτης:ΡΑΤΖΑ ΓΚΟΣΝΕΛ
    Σενάριο:ΚΑΡΕΙ ΚΕΡΚΠΑΤΡΙΚ, ΝΤΕΪΒΙΝΤ ΡΟΝ
    Ηθοποιοί:ΧΑΝΚ ΑΖΑΡΙΑ , ΜΠΡΕΝΤΑΝ ΓΚΛΙΣΟΝ , ΝΙΛ ΠΑΤΡΙΚ ΧΑΡΙΣ , ΤΖΕΙΜΑ ΜΕΙΣ , ΣΟΦΙΑ ΒΕΡΓΚΑΡΑ
    Ελληνική πρεμιέρα:Πέμπτη, 5 Σεπτεμβρίου 2013


    ΤΕΧΝΙΚΑ ΧΑΡΑΚΤΗΡΙΣΤΙΚΑ:
    [spoiler]General:
    Complete name : The.Smurfs.2..2013..R5.DVDRip.XVID.AC3.BHRG.avi
    Format : AVI
    Format/Info : Audio Video Interleave
    File size : 1.62 GiB
    Duration : 1h 40mn
    Overall bit rate : 2 316 Kbps
    Writing library : VirtualDub build 30091/release

    Video:
    ID : 0
    Format : MPEG-4 Visual
    Format profile : Advanced Simple@L5
    Format settings, BVOP : 2
    Format settings, QPel : No
    Format settings, GMC : No warppoints
    Format settings, Matrix : Default (H.263)
    Muxing mode : Packed bitstream
    Codec ID : XVID
    Codec ID/Hint : XviD
    Duration : 1h 40mn
    Bit rate : 1 859 Kbps
    Width : 656 pixels
    Height : 368 pixels
    Display aspect ratio : 16:9
    Frame rate : 25.000 fps
    Color space : YUV
    Chroma subsampling : 4:2:0
    Bit depth : 8 bits
    Scan type : Progressive
    Compression mode : Lossy
    Bits/(Pixel*Frame) : 0.308
    Stream size : 1.30 GiB (80%)
    Writing library : XviD 1.2.1 (UTC 2008-12-04)

    Audio:
    ID : 1
    Format : AC-3
    Format/Info : Audio Coding 3
    Mode extension : CM (complete main)
    Format settings, Endianness : Big
    Codec ID : 2000
    Duration : 1h 40mn
    Bit rate mode : Constant
    Bit rate : 448 Kbps
    Channel(s) : 6 channels
    Channel positions : Front: L C R, Side: L R, LFE
    Sampling rate : 48.0 KHz
    Bit depth : 16 bits
    Compression mode : Lossy
    Stream size : 322 MiB (19%)
    Alignment : Aligned on interleaves
    Interleave, duration : 40 ms (1.00 video frame)
    Interleave, preload duration : 512 ms[/spoiler]




    Υ Π Ο Θ Ε Σ Η:

    Τα θρυλικά μπλε πλασματάκια επιστρέφουν στη μεγάλη οθόνη με νέες διασκεδαστικές περιπέτειες χάρη στην εμμονή του σατανικού μάγου Δρακουμέλ που συνεχίζει -ευτυχώς για μας- να τα καταδιώκει. Για μια ακόμη φορά θα τα απολαύσουμε σε εντυπωσιακό συνδυασμό 3D με live action, ενώ η ιστορία της νέας ταινίας θα μας φτάσει μέχρι το Παρίσι, όπου θα φτάσουν ο Παπαστρούμφ και τα υπόλοιπα Στρουμφάκια προς αναζήτηση της ωραίας Στρουμφίτας.







    You must either reply or click 'Thank You' to see the hidden information contained here.
    Θα μπορέσετε να δείτε το κρυμμένο περιεχόμενο μόλις απαντήσετε σε αυτό το θέμα!


    ΚΙ ΕΔΩ ΟΙ ΥΠΟΤΙΤΛΟΙ:
    You must either reply or click 'Thank You' to see the hidden information contained here.
    Θα μπορέσετε να δείτε το κρυμμένο περιεχόμενο μόλις απαντήσετε σε αυτό το θέμα!



    You must either reply or click 'Thank You' to see the hidden information contained here.
    Θα μπορέσετε να δείτε το κρυμμένο περιεχόμενο μόλις απαντήσετε σε αυτό το θέμα!


    ΚΙ ΕΔΩ ΟΙ ΥΠΟΤΙΤΛΟΙ:
    You must either reply or click 'Thank You' to see the hidden information contained here.
    Θα μπορέσετε να δείτε το κρυμμένο περιεχόμενο μόλις απαντήσετε σε αυτό το θέμα!









    ΓΙΑ ΓΡΗΓΟΡΟΤΕΡΟ ΚΑΤΕΒΑΣΜΑ ΑΡΧΕΙΩΝ ΜΠΟΡΕΙΤΕ ΝΑ ΕΓΓΡΑΦΕΙΤΕ ΑΜΕΣΑ ΚΑΝΩΝΤΑΣ ΚΛΙΚ ΕΔΩ:









    Απάντηση με παράθεση Απάντηση με παράθεση

  2. #2
    Member
    Εγγραφή
    Nov 2013
    Μηνύματα
    11
    Total 'Thanks' Received by This User :
    0 For This Post
    0 Σύνολο
    Προειδοποιήση | Warning
    Πρέπει να είστε εγγεγραμμένο μέλος για να δείτε την απάντηση η να συνδεθείτε . Για να εγγραφείτε Παρακαλώ κάντε κλικ εδώ | You Must be a registered member and logged in to view this response. To Register Please Click Here
    Απάντηση με παράθεση Απάντηση με παράθεση

  3. #3
    Full Member
    Εγγραφή
    Jul 2013
    Ηλικία
    32
    Μηνύματα
    129
    Total 'Thanks' Received by This User :
    0 For This Post
    0 Σύνολο
    Προειδοποιήση | Warning
    Πρέπει να είστε εγγεγραμμένο μέλος για να δείτε την απάντηση η να συνδεθείτε . Για να εγγραφείτε Παρακαλώ κάντε κλικ εδώ | You Must be a registered member and logged in to view this response. To Register Please Click Here
    Απάντηση με παράθεση Απάντηση με παράθεση

 

 

Πληροφορίες Θέματος

Users Browsing this Thread

Υπάρχουν 1 χρήστης/ες που πλοηγούνται σ' αυτό το θέμα. (0 μέλος/η και 1 επισκέπτης/ες)

Δικαιώματα - Επιλογές

  • Δεν μπορείτε να δημοσιεύετε νέα θέματα
  • Δεν μπορείτε να απαντάτε σε θέματα
  • Δεν μπορείτε να δημοσιεύετε συνημμένα αρχεία
  • Δεν μπορείτε να επεξεργαστείτε τα μηνύματα σας
  •  
Back to top